Upload | Wsparcie | Staty | Staty 2 | FAQ | O nas | Forum | Pluginy | Banery | Szukaj | Moje konto
Ostatnio dodane
Filmy XviD / DivX
DVD-R
Filmy RMVB
Filmy x264
Filmy HD
Filmy 3D
Programy
Konsole
Gry
Muzyka
Teledyski
TV
Erotyka
Książki
Komiksy
Lin/Mac
Sport
Anime
dla Dzieci
GSM/PDA
Inne
info RSS

RSS

Programy

Azureus
BitComet
uTorrent
BitTornado

Linki

Saga Zmierzch: Przed świtem Część 2 - The Twilight SagaThe Twilight Saga Breaking Dawn Part 2 *2012* [DVDRip.XviD] [Napisy PL]
brak screena

Dodał: TSLAWEK
Data dodania:
2013-02-15 18:02:16
Rozmiar: 1.36 GB


Komentarze: 24

Pobierz torrent

Magnet Link
Saga "Zmierzch": Przed świtem. Część 2 - The Twilight Saga
Breaking Dawn Part 2 *2012* [DVDRip][Napisy PL]
[Horror, Romans]
Tytuł: The Twilight Saga Breaking Dawn Part 2
Polski Tytuł: Saga Zmierzch: Przed świtem. Część 2

Ocena: IMDB - 5.8/10 (74.784), Filmweb - 6.6/10 (29.556)
Produkcja: USA
Gatunek: Horror, Romans
Czas trwania: 115 min.
Premiera: 16.11.2012 - Polska, 14.11.2012 - Świat
Reżyseria: Bill Condon
Scenariusz: Melissa Rosenberg

OPIS:

Bella i Edward są wreszcie naprawdę szczęśliwi. Ona należy już w pełni do świata swego ukochanego. Jest istotą nieśmiertelną, obdarzoną niezwykłą mocą. On ma przy sobie dwie ukochane kobiety – żonę i córeczkę Renesmee. Wydaje się, że nic już nie może zmącić ich szczęścia. A jednak rodzina Cullenów staje w obliczu nowego, ogromnego zagrożenia. Gniew Volturi jeszcze nigdy nie był tak wielki. Edward zwołuje wampiry z różnych zakątków świata, aby przeciwstawić się nieuniknionemu atakowi. Do obrońców Belli i jej dziecka przyłącza się niespodziewanie Jacob. Dojdzie do walki, która raz na zawsze rozstrzygnie los nieśmiertelnych mieszkańców Forks i podda próbie miłość, która przecież miała trwać wiecznie.

OBSADA:
Dakota Fanning (Jane), Kristen Stewart (Bella Swan), Robert Pattinson (Edward Cullen), Anna Kendrick (Jessica Stanley), Elizabeth Reaser (Esme Cullen), Nikki Reed (Rosalie Hale), Michael Sheen (Aro Volturi), Taylor Lautner (Jacob Black), Peter Facinelli (Dr Carlisle Cullen), Jackson Rathbone (Jasper Hale), Billy Burke (Charlie Swan), Kellan Lutz (Emmett Cullen), Ashley Greene (Alice Cullen), Julia Jones (Leah Clearwater), Booboo Stewart (Seth Clearwater)


CD 1

Format : AVI
Format/Info : Audio Video Interleave
File size : 700 MiB
Duration : 1h 2mn
Overall bit rate : 1 563 Kbps

Video
ID : 0
Format : MPEG-4 Visual
Format profile : Advanced Simple@L5
Format settings, BVOP : 1
Format settings, QPel : No
Format settings, GMC : No warppoints
Format settings, Matrix : Default (H.263)
Codec ID : XVID
Codec ID/Hint : XviD
Duration : 1h 2mn
Bit rate : 1 108 Kbps
Width : 640 pixels
Height : 272 pixels
Display aspect ratio : 2.35:1
Frame rate : 23.976 fps
Color space : YUV
Chroma subsampling : 4:2:0
Bit depth : 8 bits
Scan type : Progressive
Compression mode : Lossy
Bits/(Pixel*Frame) : 0.265
Stream size : 496 MiB (71%)
Writing library : XviD 1.2.1 (UTC 2008-12-04)

Audio
ID : 1
Format : AC-3
Format/Info : Audio Coding 3
Mode extension : CM (complete main)
Format settings, Endianness : Big
Codec ID : 2000
Duration : 1h 2mn
Bit rate mode : Constant
Bit rate : 448 Kbps
Channel(s) : 6 channels
Channel positions : Front: L C R, Side: L R, LFE
Sampling rate : 48.0 KHz
Bit depth : 16 bits
Compression mode : Lossy
Stream size : 201 MiB (29%)
Alignment : Aligned on interleaves
Interleave, duration : 64 ms (1.53 video frames)
Interleave, preload duration : 192 ms

CD 2

Format : AVI
Format/Info : Audio Video Interleave
File size : 696 MiB
Duration : 52mn 38s
Overall bit rate : 1 848 Kbps

Video
ID : 0
Format : MPEG-4 Visual
Format profile : Advanced Simple@L5
Format settings, BVOP : 1
Format settings, QPel : No
Format settings, GMC : No warppoints
Format settings, Matrix : Default (H.263)
Codec ID : XVID
Codec ID/Hint : XviD
Duration : 52mn 38s
Bit rate : 1 393 Kbps
Width : 640 pixels
Height : 272 pixels
Display aspect ratio : 2.35:1
Frame rate : 23.976 fps
Color space : YUV
Chroma subsampling : 4:2:0
Bit depth : 8 bits
Scan type : Progressive
Compression mode : Lossy
Bits/(Pixel*Frame) : 0.334
Stream size : 524 MiB (75%)
Writing library : XviD 1.2.1 (UTC 2008-12-04)

Audio
ID : 1
Format : AC-3
Format/Info : Audio Coding 3
Mode extension : CM (complete main)
Format settings, Endianness : Big
Codec ID : 2000
Duration : 52mn 35s
Bit rate mode : Constant
Bit rate : 448 Kbps
Channel(s) : 6 channels
Channel positions : Front: L C R, Side: L R, LFE
Sampling rate : 48.0 KHz
Bit depth : 16 bits
Compression mode : Lossy
Stream size : 169 MiB (24%)
Alignment : Aligned on interleaves
Interleave, duration : 64 ms (1.54 video frames)
Title

NAPISY DOSTĘPNE NA: NapiProjekt !!!

Zgłoś do moderacji pliki
Tracker


geckos-nohomo2-xvid.nfo 3.17 KB
the.twilight.saga.breaking.dawn.part.2.2012.dvdrip.xvid-geckos-a.avi 700.03 MB
the.twilight.saga.breaking.dawn.part.2.2012.dvdrip.xvid-geckos-b.avi 695.89 MB

Komentarze

avatar
Dodał: wiktor_ir
Data: 2013-02-15 20:35:12
nie chce nic mowic ale nie powinno juz to wyjśc z lektorem?. Juz troche czasu po premierze w kinach było
avatar
Dodał: Nicolai
Data: 2013-02-15 20:39:06
Gdzie ten lektor ja się pytam!?
avatar
Dodał: Esotar
Data: 2013-02-15 21:10:47
6 marca premiera na Blu-Ray/DVD. Więc zapewne wtedy wyjdzie z lektorem. Warto czasem odwiedzić stronkę "VideoWorld" i przeczytać kiedy premiery.
avatar
Dodał: leonmetalowiec
Data: 2013-02-15 21:59:39
Brawa dla wstawiającego !!!
Przynajmniej raz ktoś wstawił we właściwym dziale ,a nie w dziale horror
avatar
Dodał: kulas81
Data: 2013-02-15 22:51:58
ok
avatar
Dodał: Big_Double-U
Data: 2013-02-16 00:47:28
wezcie przestancie z lektorem lektor tylko niszczy film ... a tu na torrentach i tak pelno tej zarazy
avatar
Dodał: baraqs
Data: 2013-02-16 01:13:57
Efekty specjalne na bardzo niskim poziomie 5/10
avatar
Dodał: Firuza
Data: 2013-02-16 04:34:54
kiedy ten lektorek ?:>
avatar
Dodał: ecantona
Data: 2013-02-16 05:02:19
Takie mam pytanie... jak to jest mozliwe ze ktos ten chlam oglada ? !!
avatar
Dodał: leonmetalowiec
Data: 2013-02-16 08:39:44
Tak ,napalone szesnastolatki :)
avatar
Dodał: Cezarygon
Data: 2013-02-16 10:06:55
Film dla dzieci i wczesnej mlodziezy do lat 16stu.
avatar
Dodał: halun1980
Data: 2013-02-16 11:18:48
A jednak go ogladacie
avatar
Dodał: kiderski
Data: 2013-02-16 12:30:00
nICOLAI BARANIE MASZ NAPISANE ZE NAPISY //////
avatar
Dodał: brml
Data: 2013-02-16 17:17:08
nie ma napisów
avatar
Dodał: TSLAWEK
Data: 2013-02-16 17:22:21

brml NAPISY DOSTĘPNE NA: NapiProjekt !!!
avatar
Dodał: TSLAWEK
Data: 2013-02-16 17:35:09
czemanch2 - Nie będę się zniżał do twego poziomu bo jest niski.A inteligentne czytanie opisu, widzę,że idzie ci ciężko!
avatar
Dodał: BLUNT ONE
Data: 2013-02-16 17:39:30
czemanch2-Bezmózgu!!! Obczaj sobie u wójka google program "NapiProjekt" A nie wszystko na tacy podaj i jeszcze po sprzątaj!!!!!!!!
avatar
Dodał: edzia1234
Data: 2013-02-16 18:18:50
Napisów brak
avatar
Dodał: TSLAWEK
Data: 2013-02-16 18:41:36
EDZIA czytaj koment wyżej.
avatar
Dodał: kowal83
Data: 2013-02-16 21:50:40
na "napi" też brak napisów...
avatar
Dodał: Bloom27
Data: 2013-02-17 11:34:07
kiedy ten lektor
avatar
Dodał: Alo20
Data: 2013-02-17 13:02:45
Esotar
To twoim zdaniem skyfall wyjdzie z lektorem 20.03.2013 czyli jeszcze ponad miesiąc
avatar
Dodał: TSLAWEK
Data: 2013-02-17 14:53:57
@kowal83 nie wiem dlaczego nie możesz znaleźć napisów na napi?.Mnie do tej wersji nawet teraz się znajdują!
avatar
Dodał: a.beta
Data: 2013-07-30 15:32:04
seda prosze
Max ()

Dodaj komentarz

<> tylko czysty tekst

Żaden z plików nie znajduje się na serwerze. Torrenty są własnością użytkowników. Administrator serwisu nie może ponieść konsekwencji za to co użytkownicy wstawiają, lub za to co czynią na stronie. Nie możesz używać tego serwisu do rozpowszechniania lub ściągania materiałów do których nie masz odpowiednich praw lub licencji. Użytkownicy odpowiedzialni są za przestrzeganie tych zasad.