Upload | Wsparcie | Staty | Staty 2 | FAQ | O nas | Forum | Pluginy | Banery | Szukaj | Moje konto
Ostatnio dodane
Filmy XviD / DivX
DVD-R
Filmy RMVB
Filmy x264
Filmy HD
Filmy 3D
Programy
Konsole
Gry
Muzyka
Teledyski
TV
Erotyka
Książki
Komiksy
Lin/Mac
Sport
Anime
dla Dzieci
GSM/PDA
Inne
info RSS

RSS

Programy

Azureus
BitComet
uTorrent
BitTornado

Linki

Mroczny Rycerz Powstaje - The Dark Knight Rises (2012) [1080p.BRRip.x264-Zetsuei] [Lektor i Napisy PL]
brak screena

Dodał: yenera
Data dodania:
2012-11-27 02:24:36
Rozmiar: 7.86 GB


Komentarze: 12

Pobierz torrent

Magnet Link
gatunek: Akcja, Sci-Fi
produkcja: USA, Wielka Brytania
premiera: 27 lipca 2012 (Polska), 16 lipca 2012 (świat)
reżyseria: Christopher Nolan
scenariusz: Jonathan Nolan, Christopher Nolan

Spektakularne zakończenie trylogii! "Mroczny Rycerz Powstaje" ponownie jednoczy wybitnego reżysera Christophera Nolana i genialnego aktora Christiana Bale'a. Osiem lat temu, po tym jak przyjmuje na siebie winę za śmierć Harveya Denta, okryty hańbą Batman (Christian Bale) znika w tajemniczych okolicznościach. Wszystko się jednak zmienia, gdy na horyzoncie pojawia się sprytna kocia włamywaczka (Anne Hathaway) i bezwzględny szaleniec - Bane (Tom Hardy). Terrorystyczne zamiary zamaskowanego Bane'a zmuszają Bruce'a do powrotu z wygnania i podjęcia ostatecznej walki o przetrwanie Gotham City? i Batmana.

Format: Matroska
Format version: Version 2
File size: 7.86 GiB
Duration: 2h 44mn
Overall bit rate: 6 835 Kbps
Encoded date: UTC 2012-11-27 00:54:18
Writing application: mkvmerge v5.8.0 ('No Sleep / Pillow') built on Sep 2 2012 15:37:04
Writing library: libebml v1.2.3 + libmatroska v1.3.0

Video
ID: 1
Format: AVC
Format/Info: Advanced Video Codec
Format profile: High@L4.0
Format settings, CABAC: Yes
Format settings, ReFrames: 5 frames
Muxing mode: Header stripping
Codec ID: V_MPEG4/ISO/AVC
Duration: 2h 44mn
Bit rate: 4 741 Kbps
Width: 1 920 pixels
Height: 800 pixels
Display aspect ratio: 2.40:1
Frame rate mode: Constant
Frame rate: 23.976 fps
Color space: YUV
Chroma subsampling: 4:2:0
Bit depth: 8 bits
Scan type: Progressive
Bits/(Pixel*Frame): 0.129
Stream size: 5.45 GiB (69%)
Writing library: x264 core 128 r2216 198a7ea
Encoding settings: cabac=1 / ref=5 / deblock=1:0:0 / analyse=0x3:0x113 / me=umh / subme=8 / psy=1 / psy_rd=1.00:0.00 / mixed_ref=1 / me_range=16 / chroma_me=1 / trellis=1 / 8x8dct=1 / cqm=0 / deadzone=21,11 / fast_pskip=1 / chroma_qp_offset=-2 / threads=6 / lookahead_threads=1 / sliced_threads=0 / nr=0 / decimate=1 / interlaced=0 / bluray_compat=0 / constrained_intra=0 / bframes=3 / b_pyramid=2 / b_adapt=2 / b_bias=0 / direct=3 / weightb=1 / open_gop=0 / weightp=2 / keyint=250 / keyint_min=23 / scenecut=40 / intra_refresh=0 / rc_lookahead=50 / rc=crf / mbtree=1 / crf=18.0 / qcomp=0.60 / qpmin=0 / qpmax=69 / qpstep=4 / ip_ratio=1.40 / aq=1:1.00
Language: English
Default: Yes
Forced: No

Audio #1
ID: 2
Format: DTS
Format/Info: Digital Theater Systems
Muxing mode: Header stripping
Codec ID: A_DTS
Duration: 2h 44mn
Bit rate mode: Constant
Bit rate: 1 510 Kbps
Channel(s): 6 channels
Channel positions: Front: L C R, Side: L R, LFE
Sampling rate: 48.0 KHz
Bit depth: 24 bits
Compression mode: Lossy
Stream size: 1.74 GiB (22%)
Language: English
Default: Yes
Forced: No

Audio #2
ID: 3
Format: AC-3
Format/Info: Audio Coding 3
Mode extension: CM (complete main)
Format settings, Endianness: Big
Muxing mode: Header stripping
Codec ID: A_AC3
Duration: 2h 44mn
Bit rate mode: Constant
Bit rate: 448 Kbps
Channel(s): 6 channels
Channel positions: Front: L C R, Side: L R, LFE
Sampling rate: 48.0 KHz
Bit depth: 16 bits
Compression mode: Lossy
Stream size: 527 MiB (7%)
Language: Polish
Default: No
Forced: No

Text #1
ID: 4
Format: UTF-8
Codec ID: S_TEXT/UTF8
Codec ID/Info: UTF-8 Plain Text
Language: English
Default: Yes
Forced: No

Text #2
ID: 5
Format: UTF-8
Codec ID: S_TEXT/UTF8
Codec ID/Info: UTF-8 Plain Text
Language: Polish
Default: No
Forced: No

Zgłoś do moderacji pliki
Tracker


The Dark Knight Rises - Mroczny Rycerz powstaje (2012) [BRRip.x264-Zetsuei] [EN DTS] [Lektor PL AC3] [Subs EN PL] [1080p].mkv 7.86 GB

Komentarze

avatar
Dodał: MarcusPower
Data: 2012-11-27 13:33:38
witam. jestem trochę w technice zacofany. podpowiedzcie mi proszę jak taki twór nagrać na płytę i odtworzyć w DVD
avatar
Dodał: slawek1965
Data: 2012-11-27 15:04:04
najprościej ten sam film pobrać ale w dziale DVD
avatar
Dodał: mikibig
Data: 2012-11-28 09:48:10

@MarcusPower - takich "tworów" NIE nagrywa się na płyty i NIE ogląda na DVD.
avatar
Dodał: Lukaszek2012
Data: 2012-11-28 11:20:18
Mógł by ktoś wstawić wersję m720p Bluray z lektorem.
avatar
Dodał: radek1987
Data: 2012-11-28 12:37:01
@MarcusPower: to jest film w wysokiej rozdzielczości, zwykłe DVD ci tego nie otworzy.
avatar
Dodał: zapalka
Data: 2012-11-28 18:38:10
ta zbyt maly wybor zgadzam sie z przedmowca wstawcie to koniecznie jeszcze kilkanascie razy gdyby moze te wstawki umknely czyjejs uwadze
avatar
Dodał: k1juh
Data: 2012-11-30 14:47:18
dajcie sedów
avatar
Dodał: grzech31k
Data: 2012-12-02 07:50:52
Ciekawe tylko nie całe 8gb hmmm a Ja mam napisy i zajmuje 7,5gb ściągalem z filmyhd polecam stronke.Pozdrawiam wszy.
avatar
Dodał: martek88
Data: 2012-12-06 15:39:49
czym otworyc ten format zeby byl lektor albo zmienic napisy?
avatar
Dodał: 19chudy88
Data: 2012-12-11 23:03:54
pot player mini 64>>> bierze wszystko i ma możliwość łatwego wybierania ścieżki dźwiękowej
avatar
Dodał: ron
Data: 2012-12-20 15:40:35
kocham nietoperze ale te amerykohumanoidalne-są jakieś już obsrane mitoligicznie?--K----WA DO "PRAWDZIWEJ NAUKI" DO BOGA DO MAHATMY DO BUDDY DO SAMEGO SIEBIE DO MATKI DO DZIECI DO ZWIERZĄT!!!!!!!DO ALGEBRYYYYYY i do polskich seriali
avatar
Dodał: ron
Data: 2012-12-20 15:47:04
podziwiam takich rycerzy!!!dupki zmoderowani przez uwięzione poglądy
Max ()

Dodaj komentarz

<> tylko czysty tekst

Żaden z plików nie znajduje się na serwerze. Torrenty są własnością użytkowników. Administrator serwisu nie może ponieść konsekwencji za to co użytkownicy wstawiają, lub za to co czynią na stronie. Nie możesz używać tego serwisu do rozpowszechniania lub ściągania materiałów do których nie masz odpowiednich praw lub licencji. Użytkownicy odpowiedzialni są za przestrzeganie tych zasad.