Upload | Wsparcie | Staty | Staty 2 | FAQ | O nas | Forum | Pluginy | Banery | Szukaj | Moje konto
Ostatnio dodane
Filmy XviD / DivX
DVD-R
Filmy RMVB
Filmy x264
Filmy HD
Filmy 3D
Programy
Konsole
Gry
Muzyka
Teledyski
TV
Erotyka
Książki
Komiksy
Linux
Sport
Anime
dla Dzieci
GSM/PDA
Inne
info RSS

RSS

Programy

Azureus
BitComet
uTorrent
BitTornado

Linki

x264/ Akcja
Rambo: Pierwsza krew - Rambo: First Blood (1982) [Blu-Ray.720p.x264] [Lektor i Napisy PL] [mb]
brak screena

Dodał: mikibig
Data dodania:
2011-06-17 20:30:51
Rozmiar: 4.66 GB


Komentarze: 12

Pobierz torrent

Magnet Link
Rambo Quadrilogy Blu-Ray
1.Rambo: Pierwsza krew - Rambo: First Blood (1982) [Blu-Ray.720p.x264] [Lektor i Napisy PL] [mb]


Reżyseria:.... Ted Kotcheff
Zdjęcia:.... Andrew Laszlo
Muzyka:.... Jerry Goldsmith
Scenariusz:.... Michael Kozoll, William Sackheim i Sylvester Stallone
na podstawie powieści Davida Morrella
Główni producenci:.... Andrew Vajna i Mario Kassar
Produkcja:.... ORION Pictures
Rok produkcji:.... 1982, USA
Data premiery:.... 22 października 1982 r.
Czas trwania:.... 93 minuty
Gatunek:.... Dramat, Akcja

Obsada;
Sylvester Stallone – John J. Rambo
Richard Crenna – pułkownik Sammuel Trautman
Brian Dennehy – szeryf Will Teasle
Jack Starrett – jako Arthur Gualt
Bill McKenney – jako Kapitan Dave Kern
Alf Humphreys – jako Lester
David Caruso – Mitch
Michael Talbott − Balford
David L. Crowley − Shingleton


Opis fabuły;
Rambo − Pierwsza krew (tytuł oryg. First Blood; także Rambo − First Blood) – amerykański sensacyjny film fabularny z 1982 roku w reżyserii Teda Kotcheffa z Sylvestrem Stallone w roli tytułowej.

John Rambo (Sylvester Stallone), weteran wojny w Wietnamie podróżuje od miasta do miasta szukając swych kolegów z wojska. Kiedy po prośbie szeryfa Teasle'a (Brian Dennehy) nie chce opuścić miasteczka, zostaje aresztowany. Wkrótce jednak ucieka i jest gotów prowadzić samotną wojnę. Jedyną osobą która może go powstrzymać jest jego dawny dowódca Samuel Trautman (Richard Crenna)...

Więcej;
http://www.blu-ray.com/movies/First-Blood-Blu-ray/61/#Screenshots
______________________________________________________________________
General

Complete name : Rambo.First.Blood.1982.BluRay720p.x264.PL.mkv
Format : Matroska
File size : 4.66 GiB
Duration : 1h 33mn
Overall bit rate : 7 163 Kbps
Movie name : Rambo.First.Blood.1982.BluRay720p.x264-mb
Encoded date : UTC 2011-06-14 00:48:41
Writing application : mkvmerge v4.7.0 ('Just Like You Imagined')
Writing library : libebml v1.2.0 + libmatroska v1.1.0

Video
ID : 1
Format : AVC
Format/Info : Advanced Video Codec
Format profile : High@L4.1
Format settings, CABAC : Yes
Format settings, ReFrames : 5 frames
Muxing mode : Header stripping
Codec ID : V_MPEG4/ISO/AVC
Duration : 1h 33mn
Bit rate : 5 206 Kbps
Width : 1 280 pixels
Height : 544 pixels
Display aspect ratio : 2.35:1
Frame rate : 23.976 fps
Color space : YUV
Chroma subsampling : 4:2:0
Bit depth : 8 bits
Scan type : Progressive
Bits/(Pixel*Frame) : 0.312
Stream size : 3.30 GiB (71%)
Writing library : x264 core 59 r859M ce13bb6

Audio #1
ID : 2
Format : DTS
Format/Info : Digital Theater Systems
Muxing mode : Header stripping
Codec ID : A_DTS
Duration : 1h 33mn
Bit rate mode : Constant
Bit rate : 1 510 Kbps
Channel(s) : 6 channels
Channel positions : Front: L C R, Side: L R, LFE
Sampling rate : 48.0 KHz
Bit depth : 24 bits
Compression mode : Lossy
Stream size : 1 006 MiB (21%)
Title : English 5.1 DTS
Language : English

Audio #2
ID : 3
Format : AC-3
Format/Info : Audio Coding 3
Mode extension : CM (complete main)
Muxing mode : Header stripping
Codec ID : A_AC3
Duration : 1h 33mn
Bit rate mode : Constant
Bit rate : 448 Kbps
Channel(s) : 6 channels
Channel positions : Front: L C R, Side: L R, LFE
Sampling rate : 48.0 KHz
Bit depth : 16 bits
Compression mode : Lossy
Stream size : 299 MiB (6%)
Title : Polish 5.1 AC3
Language : Polish

Text #1
ID : 4
Format : UTF-8
Codec ID : S_TEXT/UTF8
Codec ID/Info : UTF-8 Plain Text
Language : Polish

Text #2
ID : 5
Format : UTF-8
Codec ID : S_TEXT/UTF8
Codec ID/Info : UTF-8 Plain Text
Language : English

Text #3
ID : 6
Format : UTF-8
Codec ID : S_TEXT/UTF8
Codec ID/Info : UTF-8 Plain Text
Language : Russian

Zgłoś do moderacji pliki
Tracker


Rambo.First.Blood.1982.BluRay720p.x264.PL.mkv 4.66 GB
Rambo.First.Blood.1982.BluRay720p.x264.PL.nfo 5.21 KB
torrent pobrany z serwisu Torrenty.org.txt 0.04 KB

Komentarze

avatar
Dodał: seikitai
Data: 2011-06-17 22:36:16
dzięki za wstawkę, idzie jak burza. pozdrawiam
avatar
Dodał: broken_fader
Data: 2011-06-17 23:18:05
moim zdaniem jest to najlepsza ze wszystkich części, mimo iż reszta też była bardzo dobra to jednak rozpierducha w ameryce bardzo realnie tu jest zrobiona.
avatar
Dodał: milenium
Data: 2011-06-18 07:35:57
masz może pełną wersje na blu ray
avatar
Dodał: deathman000
Data: 2011-06-18 09:01:10
Murzynek Rambo w afryce mieszkał wielką maczetę miał ten koleżka :d nie no wszystkie Rambo są super chociaż w 4 części już zmęczony Sylwek był
avatar
Dodał: lomza 18
Data: 2011-06-18 18:13:54
jak napisy wyrzucic z filmu
avatar
Dodał: galaktic
Data: 2011-06-18 23:26:14
dolaczam sie do prosby o pelnego blu raya
avatar
Dodał: jarecki66
Data: 2011-06-19 10:06:07
może ktoś by udostępniał po pobraniu a w pełnym blu ray przy tylu pijawach to by szło z pół roku
avatar
Dodał: jarecki66
Data: 2011-06-19 10:06:08
może ktoś by udostępniał po pobraniu a w pełnym blu ray przy tylu pijawach to by szło z pół roku
avatar
Dodał: jarecki66
Data: 2011-06-19 10:06:09
może ktoś by udostępniał po pobraniu a w pełnym blu ray przy tylu pijawach to by szło z pół roku
avatar
Dodał: mikibig
Data: 2011-06-19 15:00:14
@milenium,
@galaktic - czytajcie mój pierwszy komentarz (ostatnie zdanie) tutaj;

torrenty*org/torrent/591748
avatar
Dodał: milenium
Data: 2011-06-22 07:58:46
do mikibig-nie otwiera sie ta strona co podałeś
avatar
Dodał: milenium
Data: 2011-06-22 07:59:25
do mikibig-nie otwiera sie ta storna co podałeś
Max ()

Dodaj komentarz

<> tylko czysty tekst

Żaden z plików nie znajduje się na serwerze. Torrenty są własnością użytkowników. Administrator serwisu nie może ponieść konsekwencji za to co użytkownicy wstawiają, lub za to co czynią na stronie. Nie możesz używać tego serwisu do rozpowszechniania lub ściągania materiałów do których nie masz odpowiednich praw lub licencji. Użytkownicy odpowiedzialni są za przestrzeganie tych zasad.